Lưu ý : bạn phải đăng ký làm thành viên thì mới có thể download tại diễn đàn này ^-^
Kiếm Tiền Online
Tang G+
Nhà tài Trợ
SEO Hướng dẫn cách đăng ký hostgator miễn phí
Người đẹp
Social bookmarking

Social bookmarking Digg  Social bookmarking Delicious  Social bookmarking Reddit  Social bookmarking Stumbleupon  Social bookmarking Slashdot  Social bookmarking Furl  Social bookmarking Yahoo  Social bookmarking Google  Social bookmarking Blinklist  Social bookmarking Blogmarks  Social bookmarking Technorati  

Bookmark and share the address of Dịch Vụ - Kinh Doanh on your social bookmarking website

Tìm kiếm
 
 

Display results as :
 


Rechercher Advanced Search

RSS feeds


Yahoo! 
MSN 
AOL 
Netvibes 
Bloglines 


Rank alexa
Backlink
Tự động trao đổi backlink với nino24.com Travel Backlinks Vietnam Backlinks Free Auto Backlink Exchange Service Free Automatic Link Text Backlink Exchanges Text Backlink Exchanges Florists Links OverShopping Link Exchange

The Avengers , Biệt Đội Siêu Anh Hùng , 2012 , Bản R6 , 4share , Việt sub

Xem chủ đề cũ hơn Xem chủ đề mới hơn Go down

The Avengers , Biệt Đội Siêu Anh Hùng , 2012 , Bản R6 , 4share , Việt sub

Bài gửi by hentai24z on Thu Jul 12, 2012 4:53 pm

[You must be registered and logged in to see this link.] -



[You must be registered and logged in to see this link.]

Plot: Nick Fury of S.H.I.E.L.D. brings together a team of super humans to form The Avengers to help save the Earth from Loki and his army.

Director: Joss Whedon
Writers: Zak Penn (story), Joss Whedon (story)
Stars:Robert Downey Jr., Chris Evans and Scarlett Johansson
Genres:Action | Adventure | Sci-Fi
Country:USA
Language:English

Thanks : bRaVo

Format : AVI
Format/Info : Audio Video Interleave
Format profile : OpenDML
File size : 1.34 GiB
Duration : 2h 13mn
Overall bit rate : 1 437 Kbps
Writing application : Lavf54.3.100

Video
ID : 0
Format : MPEG-4 Visual
Format profile : Simple@L3
Format settings, BVOP : No
Format settings, QPel : No
Format settings, GMC : No warppoints
Format settings, Matrix : Default (H.263)
Codec ID : XVID
Codec ID/Hint : XviD
Duration : 2h 12mn
Bit rate : 1 300 Kbps
Width : 680 pixels
Height : 370 pixels
Display aspect ratio : 16:9
Frame rate : 29.970 fps
Color space : YUV
Chroma subsampling : 4:2:0
Bit depth : 8 bits
Scan type : Progressive
Compression mode : Lossy
Bits/(Pixel*Frame) : 0.172
Stream size : 1.21 GiB (90%)
Writing library : XviD 64

Audio
ID : 1
Format : AC-3
Format/Info : Audio Coding 3
Mode extension : CM (complete main)
Codec ID : 2000
Duration : 2h 13mn
Bit rate mode : Constant
Bit rate : 128 Kbps
Channel(s) : 2 channels
Channel positions : Front: L R
Sampling rate : 48.0 KHz
Bit depth : 16 bits
Compression mode : Lossy
Stream size : 122 MiB (9%)
Alignment : Aligned on interleaves
Interleave, duration : 32 ms (0.96 video frame)

d6

File film SF
File subviet



_________________
[You must be registered and logged in to see this link.] | [You must be registered and logged in to see this link.] | [You must be registered and logged in to see this link.] | [You must be registered and logged in to see this link.] | [You must be registered and logged in to see this link.]
Tìm chúng tôi trên Google+


hentai24z
Tướng cấp 3
Tướng cấp 3

Tổng số bài gửi Tổng số bài gửi : 149
Points  Points : 449
Reputation Reputation : 0
Join Join : 17/06/2012

Xem lý lịch thành viên

Về Đầu Trang Go down

Xem chủ đề cũ hơn Xem chủ đề mới hơn Về Đầu Trang

- Similar topics

 
Permissions in this forum:
Bạn không có quyền trả lời bài viết